<?xml version="1.0" standalone="no"?>
<!DOCTYPE svg PUBLIC "-//W3C//DTD SVG 1.1//EN" "http://www.w3.org/Graphics/SVG/1.1/DTD/svg11.dtd" >
<svg xmlns="http://www.w3.org/2000/svg">
<metadata>Generated by IcoMoon</metadata>
<defs>
<font id="icomoon" horiz-adv-x="1024">
<font-face units-per-em="1024" ascent="960" descent="-64" />
<missing-glyph horiz-adv-x="1024" />
<glyph unicode="&#x20;" horiz-adv-x="512" d="" />
<glyph unicode="&#xe900;" glyph-name="play" d="M442.883 256.008l249.589 159.993c11.944 7.68 17.919 18.344 17.919 31.999s-5.975 24.319-17.919 31.999l-249.589 159.993c-12.8 8.533-25.819 9.181-39.064 1.945s-19.848-18.55-19.814-33.944v-319.987c0-15.359 6.621-26.674 19.865-33.944s26.249-6.62 39.013 1.945zM512-63.979c-70.822 0-137.381 13.45-199.672 40.343s-116.475 63.368-162.554 109.41c-46.078 46.078-82.548 100.261-109.41 162.554s-40.31 128.849-40.343 199.672c0 70.822 13.448 137.381 40.343 199.672s63.366 116.475 109.41 162.554c46.078 46.078 100.262 82.548 162.554 109.41s128.849 40.31 199.672 40.343c70.822 0 137.379-13.448 199.672-40.343s116.475-63.366 162.554-109.41c46.078-46.078 82.567-100.262 109.461-162.554s40.329-128.849 40.293-199.672c0-70.822-13.45-137.379-40.343-199.672s-63.368-116.475-109.41-162.554c-46.078-46.078-100.261-82.567-162.554-109.461s-128.849-40.329-199.672-40.293z" />
<glyph unicode="&#xe901;" glyph-name="sound-off" d="M867.171-47.239l-116.306 116.306c-11.675-6.668-23.347-13.136-35.017-19.41-11.675-6.268-23.762-11.887-36.268-16.859-16.678-6.668-32.1-4.582-46.273 6.253-14.177 10.84-21.26 25.848-21.26 45.022 0 9.175 2.717 17.293 8.154 24.362 5.433 7.073 12.306 12.29 20.611 15.658 6.668 2.501 13.136 5.222 19.41 8.154 6.268 2.937 12.306 6.053 18.108 9.354l-166.331 166.331v-138.817c0-22.511-10.225-38.149-30.665-46.922-20.445-8.769-38.568-5.218-54.377 10.655l-165.082 165.079h-150.072c-14.174 0-26.062 4.803-35.667 14.407s-14.39 21.48-14.357 35.617v200.098c0 14.174 4.803 26.062 14.407 35.667s21.477 14.39 35.617 14.357h110.053l-205.098 205.098c-9.171 9.172-13.756 20.844-13.756 35.017s4.585 25.846 13.756 35.017c9.171 9.172 20.844 13.756 35.017 13.756s25.846-4.585 35.017-13.756l850.411-850.41c9.17-9.17 13.756-20.84 13.756-35.017 0-14.171-4.587-25.843-13.756-35.017-9.175-9.17-20.845-13.756-35.022-13.756-14.171 0-25.843 4.587-35.011 13.756zM679.58 865.702c85.041-34.182 153.404-88.792 205.098-163.829 51.689-75.036 77.537-159.243 77.537-252.623 0-44.186-6.038-86.706-18.108-127.561-12.076-40.85-29.383-78.788-51.925-113.805l-72.535 72.535c14.171 25.848 24.812 52.945 31.915 81.289 7.103 28.348 10.635 57.528 10.605 87.543 0 73.37-20.229 139.235-60.679 197.596-40.455 58.362-94.016 100.882-160.676 127.561-9.175 3.336-16.258 8.755-21.26 16.258s-7.503 15.841-7.503 25.011c0 18.343 7.084 32.933 21.26 43.771 14.171 10.839 29.595 12.924 46.273 6.253zM724.602 375.465l-112.554 112.554v162.58c39.184-18.342 69.834-45.855 91.944-82.54s33.146-76.704 33.115-120.059c0-12.507-1.050-24.812-3.151-36.918s-5.222-23.976-9.354-35.617zM512 588.069l-130.064 130.062 45.024 45.022c15.838 15.841 33.981 19.394 54.426 10.655 20.44-8.737 30.645-24.378 30.615-46.922v-138.817z" />
<glyph unicode="&#xe902;" glyph-name="sound-on" d="M702.577-24.177c-18.961-7.589-36.505-5.217-52.623 7.111-16.116 12.323-24.177 29.389-24.177 51.2 0 10.428 3.089 19.661 9.273 27.705 6.184 8.039 13.995 13.972 23.439 17.807 75.849 30.339 136.777 78.695 182.784 145.067 46.007 66.367 68.989 141.272 68.949 224.711 0 83.433-23 158.339-69.007 224.709s-106.911 114.725-182.727 145.067c-10.428 3.792-18.489 9.956-24.177 18.489s-8.533 18.015-8.533 28.444c0 20.859 8.061 37.452 24.177 49.777s33.661 14.696 52.623 7.111c96.711-38.875 174.461-100.977 233.244-186.311s88.177-181.097 88.177-287.287c0-106.195-29.395-201.956-88.177-287.289s-136.533-147.439-233.244-186.311zM56.889 277.333c-16.119 0-29.639 5.461-40.561 16.384s-16.364 24.423-16.327 40.505v227.556c0 16.116 5.461 29.637 16.384 40.56s24.425 16.364 40.505 16.327h170.667l187.733 187.733c18.017 18.015 38.644 22.053 61.895 12.117s34.856-27.724 34.816-53.361v-634.309c0-25.6-11.623-43.389-34.873-53.361-23.251-9.979-43.861-5.939-61.839 12.117l-187.733 187.733h-170.667zM625.777 220.444v457.953c42.667-19.911 77.044-50.727 103.14-92.444 26.095-41.72 39.123-87.703 39.083-137.953 0-50.256-13.044-95.767-39.14-136.533-26.095-40.772-60.456-71.111-103.083-91.023z" />
<glyph unicode="&#xe903;" glyph-name="chevron-right" d="M246.374 946.317c4.322 4.327 9.455 7.76 15.105 10.102s11.705 3.547 17.822 3.547c6.116 0 12.172-1.206 17.822-3.547s10.783-5.775 15.105-10.102l465.399-465.399c4.328-4.323 7.76-9.455 10.102-15.105 2.342-5.649 3.547-11.705 3.547-17.822s-1.205-12.172-3.547-17.822c-2.342-5.65-5.775-10.784-10.102-15.105l-465.399-465.399c-4.324-4.324-9.457-7.754-15.107-10.095-5.649-2.339-11.705-3.545-17.82-3.545s-12.171 1.205-17.82 3.545c-5.649 2.34-10.783 5.771-15.107 10.095s-7.754 9.457-10.095 15.106c-2.34 5.65-3.545 11.705-3.545 17.821s1.205 12.169 3.545 17.821c2.34 5.649 5.77 10.783 10.095 15.106l432.472 432.472-432.472 432.472c-4.327 4.322-7.76 9.455-10.102 15.104s-3.547 11.706-3.547 17.823 1.206 12.172 3.547 17.822c2.342 5.65 5.775 10.783 10.102 15.105z" />
<glyph unicode="&#xe904;" glyph-name="user-friends" d="M273.071 755.194c-112.638 0-204.796-92.158-204.796-204.796 0-67.719 33.348-127.998 84.274-165.339-90.008-44.646-152.539-137.213-152.539-244.254h68.265c0 113.457 91.339 204.796 204.796 204.796s204.796-91.339 204.796-204.796h68.265c0 113.457 91.339 204.796 204.796 204.796s204.796-91.339 204.796-204.796h68.265c0 107.074-62.531 199.608-152.539 244.254 26.060 18.988 47.274 43.857 61.917 72.586s22.303 60.507 22.357 92.752c0 112.638-92.158 204.796-204.796 204.796s-204.796-92.158-204.796-204.796c0-67.719 33.348-127.998 84.274-165.339-49.871-24.518-91.148-63.561-118.406-111.989-27.258 48.428-68.535 87.471-118.406 111.989 26.060 18.988 47.274 43.857 61.917 72.586s22.303 60.507 22.357 92.752c0 112.638-92.158 204.796-204.796 204.796zM273.071 686.929c75.877 0 136.531-60.654 136.531-136.531s-60.654-136.531-136.531-136.531c-75.877 0-136.531 60.654-136.531 136.531s60.654 136.531 136.531 136.531zM750.929 686.929c75.877 0 136.531-60.654 136.531-136.531s-60.654-136.531-136.531-136.531c-75.877 0-136.531 60.654-136.531 136.531s60.654 136.531 136.531 136.531z" />
<glyph unicode="&#xe905;" glyph-name="tree" d="M512.009 959.971l-28.978-27.688-239.28-240.57-40.303-39.054 51.628-25.19c0 0 40.948-14.791 98.259-27.688l-177.616-177.576-40.303-39.094 50.379-25.149c0 0 43.447-12.292 65.493-20.152l-144.85-144.85-39.014-40.303 50.379-25.19c0 0 98.219-47.397 273.296-64.243v-127.197h80.606v122.159c13.542-0.443 26.116-1.249 40.303-1.249s26.761 0.806 40.303 1.249v-122.159h80.606v127.197c175.4 16.847 274.586 64.243 274.586 64.243l49.089 25.19-39.014 40.303-144.85 144.85c22.046 7.859 65.493 20.152 65.493 20.152l50.379 25.19-40.303 39.014-177.616 177.616c57.311 12.897 98.259 27.688 98.259 27.688l51.628 25.19-40.303 39.054-239.28 240.57-28.978 27.688zM512.009 845.348l161.213-159.923c-23.94-8.061-28.817-14.348-88.183-20.152l-73.029-7.577-73.070 7.577c-59.326 5.804-64.203 12.091-88.143 20.152l161.213 159.923zM512.009 643.832l47.88-46.591 185.113-185.153c-18.741-6.61-18.257-8.786-56.666-16.363l-74.319-15.114 54.168-52.878 147.349-147.389c-51.306-18.419-139.167-42.802-303.523-42.802-162.825 0-250.283 24.383-302.274 42.842l146.099 147.349 54.168 52.878-74.319 15.114c-38.409 7.577-37.925 9.753-56.666 16.403l185.153 185.113 47.84 46.591z" />
<glyph unicode="&#xe906;" glyph-name="hippo" d="M535.309 871.559c-7.744 0.415-15.507 0.001-23.163-1.236-50.386-8.192-88.415-54.8-88.415-108.329v-66.841h-136.4c-133.399 0-242.646-110.516-251.19-249.635l-0.812 2.472-35.309-176.547 46.149 46.149c6.709-43.607 15.783-89.438 25.493-125.348l42.053-167.966h168.779v121.711c26.094-8.792 57.448-15.783 88.273-15.783 29.953 0.162 59.715 4.841 88.273 13.877v-119.804h168.814l41.029 164.894c1.165 3.354 26.729 77.892 35.592 223.508h178.277c77.892 0 141.237 63.345 141.237 141.237v76.904c0 79.444-55.859 134.879-135.8 134.879-45.549 0-80.258-11.97-103.103-23.516-24.858 26.058-71.678 58.896-149.5 58.896h-6.073c-6.239 17.629-17.048 33.287-31.319 45.372-17.64 15.019-39.755 23.837-62.886 25.105zM523.446 800.588c5.085 0.884 10.299 0.648 15.282-0.693s9.615-3.753 13.57-7.067c3.955-3.316 7.136-7.455 9.325-12.127s3.33-9.767 3.348-14.927v-35.309h70.619c81.141 0 108.753-49.433 109.635-51.093l20.479-39.933 34.285 29.093c1.271 1.095 31.955 26.553 88.203 26.553 40.818 0 65.181-24.010 65.181-64.261v-76.904c0-38.946-31.672-70.619-70.619-70.619h-245.753l-1.342-33.897c-6.144-156.138-33.191-236.219-34.356-240.033l-28.565-114.473h-43.077v176.547l-56.495-42.371c-35.839-26.87-91.592-28.247-102.397-28.247-46.326 0-94.346 22.598-102.326 28.247l-56.566 42.477v-176.652h-43.042l-28.812 115.108c-17.831 65.958-34.073 169.944-34.073 218.106 0 108.329 81.388 196.426 181.384 196.426h207.019v137.457c0 18.996 12.747 35.91 29.095 38.593zM670.897 695.154c-9.364 0-18.346-3.72-24.967-10.341s-10.342-15.602-10.342-24.966c0-9.368 3.722-18.346 10.342-24.97 6.62-6.62 15.603-10.339 24.967-10.339s18.346 3.719 24.967 10.339c6.62 6.624 10.342 15.603 10.342 24.97 0 9.362-3.722 18.344-10.342 24.966s-15.603 10.341-24.967 10.341z" />
<glyph unicode="&#xe907;" glyph-name="kiwi-bird" d="M359.619 937.772c-192.101-4.285-355.195-167.379-359.48-359.481-1.474-58.143 11.633-115.732 38.129-167.508s65.533-96.096 113.551-128.912v-236.545l130.634-87.102 42.090 63.099-96.884 64.578v156.117c24.475-9.408 49.907-16.109 75.839-19.984v-107.844l139.697-46.642 23.965 71.972-87.823 29.236v49.296c166.203 3.868 196.274 53.657 245.456 74.096 95.369 38.489 130.331 88.733 147.66 122.785 8.608 17.064 13.5 26.923 20.022 33.635 6.484 6.636 16.571 13.613 43.077 19.984l0.152 0.152c21.8 5.088 43.119 12.066 63.706 20.856 3.716-11.073 7.849-24.117 11.983-40.271 18.088-67.422 36.744-177.92 36.744-345.754h75.84c0 173.446-19.263 290.467-39.095 365.283-5.612 21.22-12.491 42.091-20.591 62.492 7.849 7.584 14.675 15.547 20.136 23.7 24.572 37.048 24.269 75.688 24.269 94.648 0 44.139-10.807 89.643-41.143 125.174-30.526 35.417-79.556 56.766-140.759 56.766-32.763-0.014-64.942-8.693-93.271-25.155s-51.802-40.123-68.040-68.583c-51.533 121.989-158.164 199.914-305.104 199.914h-0.758zM360.984 861.932c137.877-0.303 216.675-64.729 251.030-188.424l7.736-27.682h93.018l6.826 29.198c10.959 46.338 55.818 80.694 107.238 80.694 45.011 0 67.991-12.741 82.931-30.336 15.13-17.633 23.131-44.177 23.131-75.726 0-18.96-0.152-35.379-11.566-52.557-11.376-17.064-37.048-39.133-103.256-54.681h-0.303c-35.645-8.722-61.734-22.638-79.518-40.878-17.936-18.353-25.937-37.617-33.483-52.443-14.978-29.464-25.482-53.164-108.451-86.647l-0.114-0.152c-77.622-32.004-64.047-69.166-235.824-69.166-162.486 0-287.811 121.913-284.399 283.641 3.261 149.025 135.829 281.594 285.005 285.158z" />
<glyph unicode="&#xe908;" glyph-name="parachute" d="M1024 448c0 282.325-229.675 512-512 512s-512-229.675-512-512v-19.328l341.333-298.667v-194.005h341.333v194.005l341.333 298.667v19.328zM512 859.179c36.992-40.192 103.339-135.339 122.496-311.168-30.848 16-70.997 27.989-122.496 27.989s-91.648-11.989-122.496-27.989c19.2 176 85.675 271.147 122.496 311.168zM302.336 431.019l102.315-239.019h-4.651l-300.373 262.827c16.427 16.64 45.099 35.84 92.373 35.84 81.152 0 109.184-57.685 110.336-59.648zM497.493 192l-107.52 250.667c16.384 18.517 52.907 48 122.027 48 69.333 0 105.984-29.653 122.027-47.829l-107.52-250.837h-29.013zM619.349 192l102.315 239.019c0.512 0.64 27.307 59.648 110.336 59.648 47.019 0 75.648-19.328 92.16-36.011l-300.16-262.656h-4.651zM924.16 557.013c-24.832 11.307-55.168 18.987-92.16 18.987-47.36 0-83.84-12.501-111.829-29.184-14.677 148.352-60.16 250.027-102.485 314.197 149.333-38.357 267.136-155.179 306.475-304zM406.187 860.8c-42.197-64-87.68-165.632-102.357-313.984-27.989 16.683-64.469 29.184-111.829 29.184-36.992 0-67.328-7.68-92.16-18.987 19.513 73.267 58.172 140.019 112.009 193.404 53.836 53.387 120.912 91.485 194.337 110.383zM597.333 21.333h-170.667v85.333h170.667v-85.333z" />
<glyph unicode="&#xe909;" glyph-name="solar-panel" d="M469.334 959.988v-110.675l-77.353 76.030-58.623-58.665 75.902-77.353h-110.589v-85.331h110.675l-75.988-77.353 58.623-58.623 77.353 75.902v-110.589h85.331v110.675l77.353-75.988 58.665 58.623-76.073 77.353h110.717v85.331h-110.675l76.030 77.353-58.665 58.665-77.353-76.073v110.717h-85.331zM512 831.991c47.018 0 85.331-38.314 85.331-85.331s-38.314-85.331-85.331-85.331c-47.018 0-85.331 38.314-85.331 85.331s38.314 85.331 85.331 85.331zM94.687 448l-94.675-378.658v-133.33h1023.976v133.33l-94.675 378.658h-834.626zM161.331 362.669h701.381l75.945-303.993v-37.332h-853.313v37.332l75.988 303.993zM213.34 320.003l-17.322-77.353h89.342l13.312 77.353h-85.331zM384.003 320.003l-8.021-77.353h89.342l4.011 77.353h-85.331zM554.666 320.003l4.011-77.353h89.299l-7.978 77.353h-85.331zM725.328 320.003l13.354-77.353h89.299l-17.322 77.353h-85.331zM178.653 157.319l-15.914-93.31h97.278l13.354 93.352-94.718-0.043zM370.649 157.319l-7.978-93.31h98.686l3.968 93.352-94.675-0.043zM558.676 157.319l3.968-93.31h98.686l-8.021 93.352-94.632-0.043zM750.672 157.319l13.312-93.31h97.363l-16 93.352-94.675-0.043z" />
<glyph unicode="&#xe90a;" glyph-name="fish" d="M311.843 829.033l20.431-49.898c12.737-31.026 30.048-108.575 26.056-145.155-49.46-30.483-79.8-60.238-103.205-85.062-28.596 23.116-85.171 62.38-179.158 62.38h-36.289v-36.289c0-69.455 25.076-125.886 34.039-145.155-9.072-19.124-34.039-73.559-34.039-145.155v-36.289h36.289c93.261 0 150.526 39.409 179.196 62.38 42.93-44.236 104.15-90.866 181.445-125.886-3.412-22.536-6.097-53.996 3.375-90.721l6.822-27.215h28.342c44.779 0 83.356 22.245 114.527 41.95 25.512 16.185 37.849 27.507 44.236 32.914 144.32 5.080 236.459 82.92 285.775 159.889 51.020 79.51 63.506 158.764 63.506 158.764l1.125 9.072-3.375 9.072c0 0-83.1 228.221-308.456 239.289-23.951 29.031-57.446 53.127-104.331 72.578-55.449 22.935-125.196 38.54-201.875 38.54h-54.434zM417.301 751.921c45.797-5.080 88.616-14.334 122.476-28.342 46.375-19.161 78.673-46.632 86.185-58.97l10.234-17.020h20.394c181.299 0 246.51-171.648 251.773-185.981-2.541-13.319-13.064-63.94-49.898-121.349-42.132-65.609-110.32-128.136-238.164-128.136h-13.608l-10.198-9.072c0 0-19.161-16.331-45.362-32.878-13.79-8.673-25.512-10.234-39.7-15.894 1.451 16.584 0 40.826 0 40.826l7.948 31.752-29.502 10.234c-89.852 34.293-166.277 98.924-205.249 143.995l-24.967 29.502-27.215-27.215c0 0-48.337-33.894-111.118-49.898 9.363 42.529 23.806 80.49 23.806 80.49l7.948 15.894-7.948 15.894c0 0-15.712 41.66-24.929 86.185 66.881-14.77 112.24-55.593 112.24-55.593l27.215-27.215 24.967 29.502c32.479 36.688 119.934 128.136 248.36 145.155l-10.234 71.453c-34.729-4.572-65.030-14.625-94.098-26.128-1.851 30.483-3.412 56.72-11.358 82.812zM747.311 502.435c-14.437 0-28.284-5.734-38.492-15.942s-15.942-24.057-15.942-38.492c0-14.437 5.734-28.284 15.942-38.492s24.057-15.942 38.492-15.942c14.437 0 28.284 5.734 38.492 15.942s15.942 24.057 15.942 38.492c0 14.437-5.734 28.284-15.942 38.492s-24.057 15.942-38.492 15.942z" />
<glyph unicode="&#xe90b;" glyph-name="heartbeat" d="M306.461 881.21c-168.913 0-306.438-129.964-306.438-289.856 0-8.585 0.788-16.738 1.378-25.205h78.963c-0.913 8.374-1.426 16.785-1.536 25.205-0.039 116.376 102.12 211.091 227.633 211.091 57.38 0 112.163-19.849 154.3-55.845l51.237-43.833 51.198 43.833c42.061 35.996 96.843 55.845 154.38 55.845 125.474 0 227.633-94.755 227.633-211.091 0-201.64-189.983-321.207-342.748-417.341-34.933-21.857-65.533-41.234-90.463-59.547-24.929 18.313-55.53 37.689-90.463 59.547-71.203 44.777-150.441 94.755-214.911 155.838h-106.925c77.978-94.913 188.445-164.936 280.012-222.592 38.278-24.023 71.203-44.777 94.596-63.091 0 0 37.414-29.065 37.689-29.38 0.158 0.315 37.532 29.38 37.532 29.38 23.393 18.313 56.318 39.068 94.755 63.091 160.17 100.899 379.691 238.897 379.691 484.093 0 159.855-137.525 289.856-306.438 289.856-76.797 0-149.535-26.78-205.539-74.749-56.002 47.968-128.9 74.749-205.539 74.749zM353.248 708.437l-91.997-229.679-8.625 8.625h-252.6v-78.766h219.993l69.983-70.141 65.691 164.148 118.149-275.68 81.523 203.807 11.106-22.133h74.316c8.668-15.005 22.042-26.734 38.056-33.361 16.013-6.632 33.763-7.79 50.501-3.304 16.741 4.49 31.53 14.375 42.081 28.123 10.547 13.747 16.261 30.597 16.261 47.925s-5.714 34.176-16.261 47.925c-10.551 13.747-25.339 23.633-42.081 28.123-16.738 4.486-34.487 3.328-50.501-3.304-16.013-6.629-29.387-18.356-38.056-33.361h-25.717l-67.699 135.398-76.009-190.023-118.109 275.68z" />
<glyph unicode="&#xe90c;" glyph-name="balance-scale" d="M512 861.525c-50.922 0-94.322-33.239-110.784-78.766h-283.045v-78.766h55.372l-11.067-19.691-157.532-275.68-4.923-9.846v-9.846c0-108.303 88.612-196.915 196.915-196.915s196.915 88.612 196.915 196.915v9.846l-4.923 9.846-157.532 275.68-11.067 19.691h180.925c5.92-16.412 15.383-31.318 27.718-43.66 12.334-12.339 27.237-21.811 43.644-27.742v-519.342h-157.532v-78.766h393.829v78.766h-157.532v519.382c16.387 5.967 31.266 15.45 43.601 27.777s21.822 27.203 27.801 43.585h180.886l-11.067-19.691-157.532-275.68-4.923-9.846v-9.846c0-108.303 88.612-196.915 196.915-196.915s196.915 88.612 196.915 196.915v9.846l-4.923 9.846-157.532 275.68-11.067 19.691h55.372v78.766h-283.084c-16.423 45.527-59.783 78.766-110.745 78.766zM512 782.759c22.173 0 39.383-17.25 39.383-39.383 0-22.173-17.25-39.383-39.383-39.383-22.173 0-39.383 17.25-39.383 39.383 0 22.173 17.25 39.383 39.383 39.383zM196.937 584.624l89.832-156.311h-179.625l89.793 156.311zM827.063 584.624l89.832-156.311h-179.625l89.793 156.311zM88.634 349.547h216.606c-15.832-45.684-56.908-78.766-108.303-78.766s-92.471 33.082-108.303 78.766zM718.76 349.547h216.606c-15.832-45.684-56.908-78.766-108.303-78.766s-92.471 33.082-108.303 78.766z" />
<glyph unicode="&#xe90d;" glyph-name="capsules" d="M208.586 865.236c-55.299-0.060-108.317-22.055-147.42-61.157s-61.098-92.12-61.157-147.42v-417.155c0-114.983 93.556-208.577 208.577-208.577s208.577 93.594 208.577 208.577v193.256l229.625-315.976c19.363-26.679 44.784-48.386 74.166-63.339 29.379-14.949 61.891-22.72 94.858-22.671 43.96-0.012 86.794 13.914 122.34 39.781v0.076c44.689 32.564 74.636 81.519 83.272 136.137 8.639 54.613-4.737 110.425-37.195 155.189l-245.173 337.516c-32.55 44.694-81.5 74.647-136.113 83.285s-110.42-4.744-155.174-37.209c-14.024-10.28-26.701-22.281-37.734-35.724-23.588 89.271-104.782 155.409-201.448 155.409zM208.586 789.389c73.192 0 132.731-59.539 132.731-132.731v-170.654h-265.462v170.654c0 73.192 59.539 132.731 132.731 132.731zM570.184 709.561c20.972 0.030 41.655-4.91 60.348-14.416 18.696-9.506 34.87-23.306 47.202-40.27l100.307-138.002-214.721-156.13-100.383 138.040c-20.665 28.499-29.175 64.033-23.664 98.802s24.593 65.929 53.054 86.643c23.512 17.065 50.817 25.333 77.856 25.333zM822.6 455.552l100.383-138.116c20.63-28.515 29.118-64.045 23.6-98.802-5.514-34.76-24.586-65.918-53.028-86.643-28.487-20.653-64.002-29.163-98.755-23.66s-65.903 24.571-86.613 53.013l-100.307 138.078 214.721 156.13zM75.855 410.158h265.462v-170.654c0-73.192-59.539-132.731-132.731-132.731s-132.731 59.539-132.731 132.731v170.654z" />
<glyph unicode="&#xe90e;" glyph-name="seedling" d="M794.658 524.258c-13.14-0.773-21.719 3.478-22.801 4.212l-65.196-41.66c14.338-22.492 43.94-37.757 77.137-39.728 2.589-0.116 5.14-0.116 7.729-0.116 43.593 0 86.489 22.028 118.952 61.254 55.379 67.36 94.296 138.739 95.996 141.753l17.507 32.464-31.535 19.014c-175.143 105.233-275.197 55.264-310.094 28.868-21.835-16.444-38.526-38.77-48.126-64.362-9.596-25.591-11.698-53.389-6.055-80.136-35.941-22.917-71.727-51.901-100.247-87.262-16.463 38.53-42.124 73.079-71.997 103.571 2.705 7.111 4.522 14.028 5.72 19.168 0.618 2.705 1.198 5.294 1.971 7.575 19.787 66.24-7.381 143.532-67.63 192.148-42.897 34.588-164.71 102.798-369.533-10.087l-26.434-14.492 7.536-28.984c1.546-5.913 38.066-143.571 110.682-224.186 31.38-34.897 70.799-54.491 114.121-56.616 2.705-0.155 5.41-0.155 8-0.155 48.618 0 90.278 21.603 107.166 36.984l-51.94 57.196c-0.58-0.425-65.506-45.989-119.842 14.376-42.124 46.646-70.799 121.504-84.403 162.584 146.275 70.49 227.239 26.55 256.030 3.324 33.815-27.323 50.587-67.63 43.67-102.683-83.243 61.641-169.888 96.036-176.845 98.587l-27.941-71.997c79.031-30.531 283.855-139.783 283.855-275.662v-121.541c-29.525-7.543-56.152-23.667-76.519-46.336-18.325 8.818-38.41 13.364-58.742 13.294-26.263-0.016-51.952-7.675-73.932-22.047-21.981-14.369-39.303-34.827-49.852-58.877-10.089 2.415-20.427 3.636-30.801 3.633-74.586 0-135.26-60.674-135.26-135.26v-19.323h77.292v19.323c0 15.377 6.107 30.121 16.979 40.991s25.616 16.978 40.99 16.978c15.536 0 27.439-6.493 34.704-11.942l61.912 30.801v0.618c0.089 15.335 6.234 30.008 17.089 40.837 10.856 10.824 25.545 16.927 40.88 16.978 15.536 0 30.182-6.183 41.196-17.391l62.645 10.898c6.164 13.417 16.031 24.795 28.443 32.795 12.413 7.996 26.855 12.277 41.622 12.344 13.935-0.074 27.59-3.938 39.503-11.172 11.91-7.239 21.634-17.572 28.127-29.908l60.983-9.352c7.729 7.575 17.97 11.787 28.675 11.787 22.646 0 41.235-18.55 41.235-41.196 0-4.56-0.928-9.082-2.705-14.067l62.027-42.124c10.241 9.236 27.439 20.096 51.322 20.096 42.588 0 77.292-34.704 77.292-77.292h77.292c0 85.291-69.292 154.583-154.583 154.583-13.294 0-26.434-1.816-38.955-5.14-5.036 15.664-13.271 30.112-24.18 42.426-10.914 12.316-24.262 22.229-39.206 29.116-14.944 6.883-31.152 10.589-47.604 10.882-16.451 0.29-32.784-2.837-47.959-9.19-19.829 20.533-44.968 35.156-72.616 42.24v44.249h0.155v12.676c0 160.458 252.396 237.285 254.985 238.058l-21.758 74.123c-3.942-1.043-35.477-10.705-76.983-29.757 3.014 16.038 11.323 30.994 25.352 41.544 40.926 31.111 110.373 25.198 189.906-14.956-20.544-33.599-43.329-65.775-68.21-96.305-21.294-25.815-42.279-32.308-56.191-33.042zM411.523 648.040l0.464-6.067c-1.932 1.546-4.058 3.053-6.029 4.715 1.816 0.425 3.478 1.159 5.565 1.353z" />
<glyph unicode="&#xe90f;" glyph-name="globe" d="M511.991 959.998c-282.303 0-511.989-229.686-511.989-511.989s229.686-511.989 511.989-511.989c282.303 0 511.989 229.686 511.989 511.989s-229.686 511.989-511.989 511.989zM511.991 881.23c13.312 0 26.387-0.788 39.384-1.969v-76.798h-78.768l-39.384-118.151h-39.384v-39.384h196.919l39.384-39.384h39.384v-39.384l-39.384-39.384-157.535 39.384-157.535-118.151v-118.151l78.768-78.768h118.151v-98.459l39.384-98.459h39.384l118.151 157.535v39.384l39.384 78.768v39.384h-39.384l-39.384 78.768 39.384 39.384 59.076-39.384 98.459 39.384v39.384h71.245c4.726-25.599 7.522-51.829 7.522-78.768 0-238.862-194.359-433.221-433.221-433.221s-433.221 194.359-433.221 433.221c0 238.862 194.359 433.221 433.221 433.221z" />
<glyph unicode="&#xe910;" glyph-name="accessible" d="M860.152 959.986c-67.377 0-122.876-55.499-122.876-122.876s55.499-122.876 122.876-122.876c67.377 0 122.876 55.499 122.876 122.876s-55.499 122.876-122.876 122.876zM860.152 878.069c23.060 0 40.959-17.94 40.959-40.959 0-23.060-17.94-40.959-40.959-40.959-23.060 0-40.959 17.94-40.959 40.959 0 23.060 17.94 40.959 40.959 40.959zM637.419 753.924l-147.164-16.629c-23.346-2.744-42.884-16.67-56.318-35.88l-1.27 1.311-1.311-2.58-94.696-125.415 63.977-48.659 97.277 126.726 2.58 2.58 89.576 10.24-69.097-157.445c-44.187-1.626-87.398-13.451-126.255-34.549-38.857-21.094-72.312-50.891-97.748-87.058h113.906c35.032 26.459 77.706 40.832 121.606 40.959 112.964 0 204.793-91.829 204.793-204.793s-91.829-204.793-204.793-204.793c-66.722 0-125.129 32.48-162.565 81.917h-96.007c46.119-96.662 144.502-163.834 258.572-163.834 158.1 0 286.71 128.61 286.71 286.71 0 13.926-1.925 27.524-3.85 40.959h80.648l-62.708-235.512 79.337-20.479 67.868 254.722 2.539 8.929-1.27 10.24c-8.192 37.477-42.392 64.018-80.648 64.018h-110.097c-12.014 24.711-27.532 47.557-46.078 67.827l66.558 139.546 1.311 2.539v1.27c9.908 27.725 9.54 58.083-1.037 85.563s-30.654 50.252-56.592 64.182l-69.097 38.419v-1.27c-14.745 7.823-32.153 12.165-48.659 10.24zM674.568 657.917l42.228-23.060c18.227-9.748 26.214-30.555 19.21-49.888l-56.318-116.486c-23.17 13.708-48.175 24.050-74.258 30.719l69.138 158.715zM163.856 345.607v-81.917h286.71v81.917h-286.71zM40.98 222.731v-81.917h532.462v81.917h-532.462z" />
<glyph unicode="&#xe911;" glyph-name="user-graduate" d="M512 940.282l-511.978-157.532 236.297-72.583v-104.955c-4.923-5.986-8.625-11.815-11.539-17.998-7.089-14.926-11.539-31.506-15.556-51.198-7.483-37.414-11.5-85.697-11.972-138.628-12.393-10.921-22.339-24.335-29.18-39.371-6.842-15.032-10.427-31.345-10.518-47.863 0-50.292 35.681-86.642 80.144-103.538 17.84-51.395 47.535-107.83 90.305-155.681 46.787-52.143 109.248-95.228 183.997-95.228s137.21 43.085 183.997 95.228c42.77 47.85 72.465 104.286 90.305 155.681 44.463 16.935 80.144 53.246 80.144 103.538-0.066 16.623-3.655 33.042-10.523 48.181-6.872 15.135-16.868 28.647-29.333 39.643-0.433 52.773-4.45 100.82-11.815 137.998-4.017 19.691-8.467 36.311-15.556 51.237-3.088 6.455-6.963 12.5-11.539 17.998v104.916l236.297 72.622-511.978 157.532zM512 857.814l244.292-75.064-244.292-75.064-244.292 75.064 244.292 75.064zM315.085 685.868l196.915-60.65 11.697 3.544 185.218 57.105v-91.408c-0.473-0.63 0-0.788-1.851-2.009-6.144-5.238-18.904-12.76-36.469-19.849-35.208-13.981-89.793-26.15-158.595-26.15-68.763 0-123.387 12.169-158.595 26.15-17.565 7.089-30.325 14.611-36.469 19.849-1.851 1.221-1.378 1.378-1.851 1.969v91.447zM286.178 518.648c11.382-6.931 23.669-13.39 38.123-19.061 46.314-18.51 109.878-31.861 187.699-31.861 77.86 0 141.385 13.39 187.699 31.861 13.236 5.234 25.993 11.611 38.123 19.061 6.183-31.861 10.476-78.293 10.476-129.688v-33.397l19.691-11.539c12.012-6.774 19.691-18.904 19.691-33.83 0.079-9.901-3.643-19.455-10.397-26.694-6.758-7.239-16.033-11.611-25.914-12.216l-26.465-2.166-7.837-25.402c-13.075-42.612-42.297-98.3-79.987-140.282-37.532-42.022-81.404-68.959-125.080-68.959-43.715 0-87.548 26.938-125.080 68.92-37.689 41.982-66.912 97.67-79.987 140.321l-7.877 25.363-26.426 2.166c-9.883 0.607-19.157 4.978-25.913 12.216s-10.477 16.793-10.398 26.694c0 14.769 7.877 26.938 20.007 33.869l20.164 11.657-0.788 33.239v0.473c0 51.080 4.332 97.394 10.476 129.255zM203.711 388.921h32.767l-33.082-0.788 0.315 0.788zM393.851 349.538c-21.661 0-39.383-17.722-39.383-39.383s17.722-39.383 39.383-39.383c21.661 0 39.383 17.722 39.383 39.383s-17.722 39.383-39.383 39.383zM630.149 349.538c-21.661 0-39.383-17.722-39.383-39.383s17.722-39.383 39.383-39.383c21.661 0 39.383 17.722 39.383 39.383s-17.722 39.383-39.383 39.383z" />
<glyph unicode="&#xe912;" glyph-name="wheelchair" d="M707.18 959.985c-67.375 0-122.873-55.498-122.873-122.873s55.498-122.873 122.873-122.873c67.375 0 122.873 55.498 122.873 122.873s-55.498 122.873-122.873 122.873zM707.18 878.070c23.059 0 40.958-17.939 40.958-40.958 0-23.059-17.939-40.958-40.958-40.958-23.059 0-40.958 17.939-40.958 40.958 0 23.059 17.939 40.958 40.958 40.958zM483.182 764.166l-147.202-16.67c-11.956-1.403-23.448-5.463-33.634-11.884-10.183-6.421-18.801-15.039-25.222-25.224l-102.394-158.711 69.137-43.497 102.394 157.441 93.384 10.239-60.126-170.302c-138.56-19.987-245.746-138.847-245.746-282.854 0-157.892 128.812-286.704 286.704-286.704s286.704 128.812 286.704 286.704c0 13.926-1.925 27.524-3.85 40.958h52.508l55.006-249.596 79.376 17.939-53.777 249.555c-8.151 37.517-42.391 64.058-80.605 64.058h-76.796c-16.493 34.056-39.557 64.512-67.867 89.615l47.388 131.802c9.908 27.725 9.539 58.082-1.037 85.561s-30.653 50.25-56.591 64.181l-69.055 38.418v-1.27c-14.745 7.823-32.193 12.164-48.699 10.239zM524.14 665.581l38.418-20.479c18.226-9.748 26.213-30.554 19.168-49.886l-40.958-112.634c-23.956 11.181-49.367 18.93-75.485 23.018l58.856 159.981zM420.476 427.535c113.576 0 204.788-91.213 204.788-204.788s-91.213-204.788-204.788-204.788c-113.576 0-204.788 91.213-204.788 204.788s91.213 204.788 204.788 204.788z" />
<glyph unicode="&#xe913;" glyph-name="user-nurse" d="M262.665 960.009l-6.656-34.688-42.667-240v-151.979h4.011c5.909-41.241 20.341-80.797 42.381-116.156 22.037-35.353 51.196-65.732 85.619-89.199-152.192-65.28-260.011-216.32-260.011-391.979h85.333c-0.069 51.208 11.403 101.777 33.563 147.943s54.437 86.745 94.437 118.724v-27.989l11.989-13.355 170.667-170.667 30.677-29.312 30.677 29.312 170.667 170.667 11.989 13.355v27.989c40-31.979 72.277-72.559 94.439-118.724 22.157-46.165 33.629-96.733 33.561-147.943h85.333c0 175.659-107.819 326.656-260.011 392.021 34.419 23.463 63.573 53.832 85.611 89.181s36.476 74.897 42.389 116.131h4.011v152.021l-42.667 239.957-6.656 34.688h-498.688zM334.686 874.676h354.645l36.011-203.989v-52.011h-426.667v52.011l36.011 203.989zM469.342 832.009v-42.667h-42.667v-85.333h42.667v-42.667h85.333v42.667h42.667v85.333h-42.667v42.667h-85.333zM302.686 533.342h418.645c-9.852-48.227-36.075-91.563-74.223-122.667s-85.88-48.060-135.1-48c-49.22-0.060-96.952 16.896-135.1 48s-64.371 74.44-74.223 122.667zM512.009 277.342c43.811 0.231 87.257-7.923 128-24.021v-42.667l-128-128-128 128v42.667c40.743 16.099 84.189 24.252 128 24.021z" />
<glyph unicode="&#xe914;" glyph-name="users" d="M347.435 813.7c-33.904-0.135-66.382-13.663-90.357-37.637s-37.502-56.453-37.637-90.357c0-70.287 57.707-127.995 127.995-127.995s127.995 57.707 127.995 127.995c0 70.287-57.707 127.995-127.995 127.995zM676.565 813.7c-33.904-0.135-66.381-13.663-90.357-37.637s-37.502-56.453-37.637-90.357c0-70.287 57.707-127.995 127.995-127.995s127.995 57.707 127.995 127.995c0 70.287-57.707 127.995-127.995 127.995zM347.435 740.56c30.719 0 54.855-24.136 54.855-54.855s-24.136-54.855-54.855-54.855c-30.719 0-54.855 24.136-54.855 54.855s24.136 54.855 54.855 54.855zM676.565 740.56c30.719 0 54.855-24.136 54.855-54.855s-24.136-54.855-54.855-54.855c-30.719 0-54.855 24.136-54.855 54.855s24.136 54.855 54.855 54.855zM182.87 594.28c-80.454 0-146.28-65.826-146.28-146.28 0-40.702 17.444-77.419 44.579-104.005-24.893-16.797-45.3-39.426-59.443-65.917s-21.596-56.037-21.705-86.067h73.14c0 60.999 48.711 109.71 109.71 109.71s109.71-48.711 109.71-109.71h73.14c-0.11 30.031-7.563 59.576-21.704 86.067-14.146 26.492-34.552 49.12-59.444 65.917 27.135 26.586 44.579 63.266 44.579 104.005 0 80.454-65.826 146.28-146.28 146.28zM365.72 192.010c-22.856-30.572-36.57-69.008-36.57-109.71h73.14c0 60.999 48.711 109.71 109.71 109.71s109.71-48.711 109.71-109.71h73.14c-0.062 39.554-12.887 78.029-36.57 109.71-12.434 16.566-27.427 30.719-44.579 42.275 27.135 26.586 44.579 63.266 44.579 104.005 0 80.454-65.826 146.28-146.28 146.28s-146.28-65.826-146.28-146.28c0-40.702 17.444-77.419 44.579-104.005-17.118-11.501-32.188-25.789-44.579-42.275zM658.28 192.010h73.14c0 60.999 48.711 109.71 109.71 109.71s109.71-48.711 109.71-109.71h73.14c-0.11 30.031-7.563 59.576-21.704 86.067-14.146 26.492-34.552 49.12-59.444 65.917 27.135 26.586 44.579 63.266 44.579 104.005 0 80.454-65.826 146.28-146.28 146.28s-146.28-65.826-146.28-146.28c0-40.702 17.444-77.419 44.579-104.005-24.893-16.797-45.299-39.426-59.444-65.917-14.141-26.492-21.595-56.037-21.704-86.067zM182.87 521.14c40.849 0 73.14-32.291 73.14-73.14s-32.291-73.14-73.14-73.14c-40.849 0-73.14 32.291-73.14 73.14s32.291 73.14 73.14 73.14zM841.13 521.14c40.849 0 73.14-32.291 73.14-73.14s-32.291-73.14-73.14-73.14c-40.849 0-73.14 32.291-73.14 73.14s32.291 73.14 73.14 73.14zM512 411.43c40.849 0 73.14-32.291 73.14-73.14s-32.291-73.14-73.14-73.14c-40.849 0-73.14 32.291-73.14 73.14s32.291 73.14 73.14 73.14z" />
<glyph unicode="&#xe915;" glyph-name="temperature-high" d="M170.666 960.009v-489.344c-74.667-54.144-128-136.832-128-235.989 0-164.48 134.187-298.667 298.667-298.667s298.667 134.187 298.667 298.667c0 99.157-53.333 181.845-128 235.989v62.677h85.333v85.333h-85.333v85.333h85.333v85.333h-85.333v85.333h85.333v85.333h-426.667zM832 960.009c-82.347 0-149.333-66.987-149.333-149.333s66.987-149.333 149.333-149.333c82.347 0 149.333 66.987 149.333 149.333s-66.987 149.333-149.333 149.333zM256 874.676h170.667v-443.989l21.333-12.032c63.829-36.992 106.667-104.96 106.667-183.979 0-118.315-95.019-213.333-213.333-213.333s-213.333 95.019-213.333 213.333c0 79.019 42.837 146.987 106.667 184.021l21.333 11.947v444.032zM832 874.676c35.285 0 64-28.715 64-64s-28.715-64-64-64c-35.285 0-64 28.715-64 64s28.715 64 64 64zM298.666 789.342v-434.688c-49.493-17.664-85.333-64.555-85.333-120.064 0.861-33.373 14.724-65.096 38.635-88.397s55.979-36.339 89.365-36.339c33.387 0 65.455 13.039 89.365 36.339s37.773 55.023 38.635 88.397c0 55.509-35.84 102.4-85.333 120.064v434.688h-85.333z" />
<glyph unicode="&#xe916;" glyph-name="check" d="M440.323 355.844l-110.075 110.075c-9.386 9.385-21.333 14.079-35.839 14.079s-26.453-4.695-35.839-14.079c-9.386-9.385-14.079-21.334-14.079-35.839s4.693-26.454 14.079-35.839l145.914-145.914c10.239-10.239 22.183-15.359 35.839-15.359s25.599 5.12 35.839 15.359l289.268 289.268c9.385 9.385 14.079 21.333 14.079 35.839s-4.695 26.453-14.079 35.839c-9.385 9.386-21.334 14.079-35.839 14.079s-26.454-4.693-35.839-14.079l-253.429-253.429zM512-63.979c-70.822 0-137.381 13.45-199.672 40.343s-116.475 63.368-162.554 109.41c-46.078 46.078-82.548 100.261-109.41 162.554s-40.31 128.849-40.343 199.672c0 70.822 13.448 137.381 40.343 199.672s63.366 116.475 109.41 162.554c46.078 46.078 100.262 82.548 162.554 109.41s128.849 40.31 199.672 40.343c70.822 0 137.379-13.448 199.672-40.343s116.475-63.366 162.554-109.41c46.078-46.078 82.567-100.262 109.461-162.554s40.329-128.849 40.293-199.672c0-70.822-13.45-137.379-40.343-199.672s-63.368-116.475-109.41-162.554c-46.078-46.078-100.261-82.567-162.554-109.461s-128.849-40.329-199.672-40.293z" />
<glyph unicode="&#xe917;" glyph-name="chevron-down-thin" d="M512 959.959c-101.255 0-200.238-30.026-284.429-86.281s-149.81-136.212-188.56-229.761c-38.749-93.547-48.887-196.486-29.133-295.796s68.513-190.531 140.113-262.133c71.599-71.598 162.821-120.357 262.131-140.113 99.31-19.751 202.25-9.615 295.795 29.136 93.55 38.75 173.508 104.368 229.762 188.56s86.281 183.174 86.281 284.429c-0.148 135.736-54.135 265.867-150.112 361.845-95.982 95.978-226.112 149.966-361.848 150.114zM512-23.003c-93.156 0-184.218 27.625-261.675 79.379s-137.826 125.312-173.475 211.378c-35.649 86.066-44.976 180.768-26.802 272.132 18.173 91.367 63.032 175.292 128.904 241.162s149.796 110.729 241.162 128.904c91.364 18.175 186.067 8.847 272.132-26.802s159.624-96.018 211.378-173.475c51.754-77.457 79.379-168.519 79.379-261.675-0.133-124.877-49.803-244.599-138.101-332.902-88.303-88.298-208.024-137.968-332.902-138.101zM731.272 544.402c1.904-1.899 3.415-4.162 4.444-6.645 1.034-2.488 1.561-5.15 1.561-7.843s-0.527-5.355-1.561-7.843c-1.029-2.483-2.539-4.746-4.444-6.645l-204.784-204.784c-1.899-1.904-4.162-3.415-6.645-4.444-2.488-1.034-5.15-1.561-7.843-1.561s-5.355 0.527-7.843 1.561c-2.483 1.029-4.741 2.539-6.645 4.444l-204.784 204.784c-1.902 1.904-3.412 4.162-4.441 6.645-1.030 2.488-1.56 5.15-1.56 7.843s0.53 5.355 1.56 7.843c1.029 2.483 2.539 4.741 4.441 6.645s4.162 3.41 6.648 4.444c2.486 1.029 5.15 1.556 7.841 1.556s5.355-0.527 7.841-1.556c2.486-1.034 4.745-2.539 6.648-4.444l190.295-190.295 190.295 190.295c1.904 1.904 4.162 3.415 6.645 4.444 2.488 1.034 5.15 1.561 7.843 1.561s5.355-0.527 7.843-1.561c2.483-1.029 4.746-2.539 6.645-4.444z" />
<glyph unicode="&#xe918;" glyph-name="chevron-down" d="M511.991 959.967c-101.256 0-200.24-30.026-284.433-86.282s-149.812-136.214-188.561-229.763c-38.749-93.547-48.888-196.487-29.134-295.799s68.515-190.535 140.114-262.137c71.6-71.601 162.824-120.361 262.137-140.116s202.251-9.614 295.799 29.138c93.552 38.747 173.507 104.367 229.765 188.561 56.257 84.189 86.281 183.176 86.281 284.432-0.143 135.74-54.131 265.876-150.11 361.857s-226.117 149.967-361.857 150.11zM511.991 14.798c-85.681 0-169.434 25.406-240.674 73.009-71.24 47.598-126.765 115.256-159.553 194.414s-41.367 166.261-24.652 250.293c16.715 84.033 57.974 161.223 118.558 221.807s137.773 101.843 221.806 118.558c84.031 16.715 171.135 8.136 250.293-24.652s146.816-88.313 194.414-159.553c47.603-71.24 73.009-154.994 73.009-240.675-0.128-114.853-45.811-224.965-127.027-306.176-81.211-81.216-191.323-126.899-306.176-127.027zM736.764 554.627c3.663-3.658 6.567-7.999 8.551-12.779 1.979-4.785 2.998-9.91 2.998-15.083s-1.019-10.298-2.998-15.083c-1.984-4.78-4.888-9.122-8.551-12.779l-196.91-196.91c-3.658-3.663-7.999-6.567-12.779-8.546-4.785-1.984-9.91-3.003-15.083-3.003s-10.298 1.019-15.078 3.003c-4.785 1.979-9.127 4.883-12.784 8.546l-196.91 196.91c-7.389 7.389-11.541 17.412-11.541 27.863s4.151 20.474 11.541 27.863c7.39 7.389 17.412 11.539 27.863 11.539s20.474-4.15 27.863-11.539l169.047-169.097 169.047 169.097c3.658 3.663 7.999 6.567 12.784 8.546 4.78 1.984 9.905 3.003 15.078 3.003s10.298-1.019 15.083-3.003c4.78-1.979 9.122-4.883 12.779-8.546z" />
<glyph unicode="&#xe919;" glyph-name="instagram" d="M671.995 448c0-42.436-16.853-83.128-46.862-113.133-30.004-30.009-70.697-46.862-113.133-46.862-42.432 0-83.128 16.853-113.133 46.862-30.005 30.004-46.861 70.697-46.861 113.133 0 9.118 0.96 18.025 2.613 26.665h-55.945v-213.165c0-14.827 12-26.826 26.826-26.826h373.054c7.109 0.010 13.914 2.848 18.938 7.877 5.019 5.029 7.834 11.839 7.834 18.948v213.165h-55.945c1.653-8.639 2.613-17.546 2.613-26.665zM512 341.337c14.010 0 27.887 2.768 40.826 8.128 12.943 5.365 24.703 13.232 34.607 23.141 9.909 9.909 17.765 21.669 23.119 34.618 5.36 12.943 8.117 26.82 8.112 40.83 0 14.011-2.768 27.884-8.128 40.827-5.365 12.942-13.232 24.702-23.141 34.607s-21.669 17.76-34.618 23.119c-12.943 5.358-26.82 8.114-40.83 8.111-28.296-0.007-55.43-11.255-75.433-31.268s-31.237-47.153-31.23-75.448c0.007-28.298 11.255-55.433 31.268-75.432 20.013-20.005 47.153-31.242 75.448-31.231zM639.996 559.995h63.945c4.251 0 8.325 1.683 11.333 4.682s4.709 7.069 4.72 11.317v63.945c0 4.257-1.691 8.34-4.699 11.351-3.013 3.010-7.094 4.702-11.354 4.702h-63.945c-4.256 0-8.341-1.692-11.349-4.702-3.013-3.010-4.704-7.094-4.704-11.351v-63.945c0.053-8.8 7.253-16 16.053-16zM512 959.983c-135.785 0-266.011-53.941-362.026-149.957s-149.957-226.241-149.957-362.026c0-135.787 53.941-266.013 149.957-362.026 96.016-96.018 226.241-149.958 362.026-149.958 67.235 0 133.815 13.242 195.93 38.97 62.116 25.733 118.557 63.444 166.096 110.988 47.545 47.54 85.256 103.981 110.988 166.096 25.727 62.116 38.97 128.695 38.97 195.93 0 67.233-13.242 133.809-38.97 195.926-25.733 62.117-63.444 118.558-110.988 166.099-47.54 47.542-103.981 85.255-166.096 110.984s-128.695 38.973-195.93 38.973zM778.658 240.593c0-32.585-26.666-59.251-59.251-59.251h-414.813c-32.585 0-59.251 26.666-59.251 59.251v414.813c0 32.585 26.666 59.251 59.251 59.251h414.813c32.585 0 59.251-26.666 59.251-59.251v-414.813z" />
<glyph unicode="&#xe91a;" glyph-name="facebook" d="M512 959.983c-282.763 0-511.983-229.219-511.983-511.983s229.219-511.984 511.983-511.984c282.764 0 511.984 229.22 511.984 511.984s-229.22 511.983-511.984 511.983zM633.276 606.181h-76.958c-9.12 0-19.253-12-19.253-27.946v-55.572h96.264l-14.56-79.25h-81.704v-237.912h-90.823v237.912h-82.397v79.25h82.397v46.612c0 66.878 46.399 121.223 110.076 121.223h76.958v-84.317z" />
<glyph unicode="&#xe91b;" glyph-name="linkedin" d="M512 959.983c-282.763 0-511.983-229.219-511.983-511.983s229.219-511.984 511.983-511.984c282.764 0 511.984 229.22 511.984 511.984s-229.22 511.983-511.984 511.983zM386.672 235.793h-103.677v333.642h103.677v-333.642zM334.193 610.394c-32.746 0-53.918 23.199-53.918 51.892 0 29.279 21.813 51.785 55.251 51.785s53.918-22.506 54.559-51.785c0-28.693-21.119-51.892-55.892-51.892zM765.326 235.793h-103.677v184.901c0 43.037-15.039 72.263-52.532 72.263-28.639 0-45.652-19.786-53.171-38.826-2.773-6.772-3.467-16.371-3.467-25.918v-192.367h-103.729v227.191c0 41.652-1.333 76.478-2.72 106.451h90.076l4.747-46.345h2.080c13.653 21.76 47.092 53.865 103.036 53.865 68.211 0 119.357-45.705 119.357-143.941v-197.274z" />
<glyph unicode="&#xe91c;" glyph-name="twitter" d="M0.022 448.004c0-282.762 229.217-511.977 511.978-511.977s511.981 229.215 511.981 511.977-229.218 511.98-511.981 511.98c-282.761 0-511.978-229.217-511.978-511.98zM716.582 687.996l-160.815-203.238 174.893-276.741h-128.631l-117.782 186.357-147.459-186.357h-38.109l168.651 213.126-168.651 266.853h128.631l111.528-176.468 139.634 176.468h38.109zM486.481 445.365l133.475-207.577h58.534l-269.437 419.018h-58.534l135.961-211.442z" />
<glyph unicode="&#xe91d;" glyph-name="youtube" d="M597.491 456.905l-119.782 55.892c-10.453 4.853-19.040-0.586-19.040-12.16v-105.276c0-11.573 8.587-17.013 19.040-12.16l119.728 55.892c10.506 4.906 10.506 12.905 0.053 17.812zM512 959.983c-282.763 0-511.983-229.219-511.983-511.983s229.219-511.984 511.983-511.984c282.764 0 511.984 229.22 511.984 511.984s-229.22 511.983-511.984 511.983zM512 240.006c-262.071 0-266.657 23.626-266.657 207.994s4.586 207.993 266.657 207.993c262.072 0 266.658-23.626 266.658-207.993s-4.586-207.994-266.658-207.994z" />
<glyph unicode="&#xe91e;" glyph-name="external" d="M778.243 811.884h-264.926v146.285h512.003v-512h-146.286v259.657l-359.427-359.424-103.424 103.424 362.060 362.057zM437.541 815.544h-438.857v-877.716h877.718v438.859h-146.286v-292.573h-585.146v585.144h292.571v146.286z" />
<glyph unicode="&#xe91f;" glyph-name="caret" d="M780.125-29.091c-7.764-7.772-16.983-13.938-27.131-18.145s-21.025-6.372-32.010-6.372-21.862 2.165-32.010 6.372c-10.148 4.207-19.367 10.373-27.131 18.145l-417.959 417.959c-7.772 7.764-13.938 16.983-18.144 27.131s-6.372 21.025-6.372 32.010c0 10.985 2.165 21.863 6.372 32.010 4.207 10.148 10.372 19.367 18.144 27.131l417.959 417.959c15.686 15.685 36.959 24.497 59.141 24.497s43.456-8.812 59.141-24.497c15.686-15.685 24.498-36.959 24.498-59.141s-8.812-43.456-24.498-59.141l-358.922-358.818 358.922-358.818c7.772-7.764 13.938-16.983 18.145-27.131s6.372-21.025 6.372-32.010-2.165-21.862-6.372-32.010c-4.207-10.148-10.373-19.367-18.145-27.131z" />
</font>
</defs>
</svg>
